osu file format v14

[General]
AudioFilename: Karen Aikyou Hanasakugumi.mp3
AudioLeadIn: 1500
PreviewTime: 131123
Countdown: 0
SampleSet: Soft
StackLeniency: 0.7
Mode: 0
LetterboxInBreaks: 1
WidescreenStoryboard: 0

[Editor]
Bookmarks: 201837
DistanceSpacing: 1.1
BeatDivisor: 4
GridSize: 4
TimelineZoom: 1

[Metadata]
Title:Karen Aikyou Hanasaka gumi
TitleUnicode:可憐愛嬌花咲組
Artist:capitaro
ArtistUnicode:かぴたろう
Creator:Tari
Version:Hard
Source:
Tags:vocaloid hatsune miku kagamine rin megpoid
BeatmapID:720613
BeatmapSetID:324320

[Difficulty]
HPDrainRate:5
CircleSize:4
OverallDifficulty:6
ApproachRate:7
SliderMultiplier:1.6
SliderTickRate:1

[Events]
//Background and Video events
0,0,"BGI.jpg",0,0
Video,700,"opto.flv",0,0
//Break Periods
2,91030,103645
//Storyboard Layer 0 (Background)
//Storyboard Layer 1 (Fail)
//Storyboard Layer 2 (Pass)
//Storyboard Layer 3 (Foreground)
//Storyboard Sound Samples

[TimingPoints]
1688,428.571428571429,4,2,1,40,1,0
1688,-125,4,2,1,40,0,0
6830,-125,4,2,1,55,0,0
7259,-100,4,2,1,55,0,0
8545,-100,4,2,1,70,0,0
14973,-100,4,2,2,60,0,0
15402,-100,4,2,1,70,0,0
21402,-200,4,2,2,70,0,0
22045,-200,4,2,1,60,0,0
22259,-100,4,2,1,60,0,0
35973,-100,4,2,1,65,0,0
49688,-100,4,2,1,60,0,0
53116,-100,4,2,2,50,0,0
53223,-100,4,2,1,65,0,0
55688,-100,4,2,2,50,0,0
56116,-100,4,2,1,65,0,0
59116,-100,4,2,2,50,0,0
59545,-100,4,2,1,70,0,0
59973,-100,4,2,2,55,0,0
60295,-100,4,2,1,65,0,0
61473,-100,4,2,2,55,0,0
61902,-100,4,2,1,65,0,0
63402,-100,4,2,1,75,0,1
68330,-100,4,2,2,60,0,1
68438,-100,4,2,1,75,0,1
75188,-100,4,2,2,60,0,1
75295,-100,4,2,1,75,0,1
82045,-100,4,2,2,60,0,1
82152,-100,4,2,1,75,0,1
88902,-100,4,2,2,60,0,1
89009,-100,4,2,1,75,0,1
90830,-100,4,2,2,75,0,0
104545,-100,4,2,1,55,0,0
118259,-100,4,2,1,60,0,0
121688,-100,4,2,2,40,0,0
121795,-100,4,2,1,65,0,0
124259,-100,4,2,2,50,0,0
124366,-100,4,2,1,60,0,0
128545,-100,4,2,2,40,0,0
128866,-100,4,2,1,65,0,0
130045,-100,4,2,2,40,0,0
130152,-100,4,2,1,65,0,0
131973,-100,4,2,1,75,0,1
136902,-100,4,2,2,60,0,1
137009,-100,4,2,1,75,0,1
143759,-100,4,2,2,60,0,1
144188,-100,4,2,1,75,0,1
150616,-100,4,2,2,60,0,1
150723,-100,4,2,1,75,0,1
157473,-100,4,2,2,60,0,1
157580,-100,4,2,1,75,0,1
159402,-100,4,2,1,65,0,0
164330,-100,4,2,2,65,0,0
164438,-100,4,2,1,65,0,0
171188,-100,4,2,2,60,0,0
171295,-100,4,2,1,65,0,0
179973,-100,4,2,2,50,0,0
184259,-100,4,2,1,70,0,0
191973,-100,4,2,1,75,0,1
193473,-100,4,2,2,60,0,1
193688,-100,4,2,1,75,0,1
200330,-100,4,2,2,60,0,1
200438,-100,4,2,1,75,0,1
207188,-100,4,2,2,60,0,1
207295,-100,4,2,1,75,0,1
214045,-100,4,2,2,60,0,1
214152,-100,4,2,1,75,0,1
215973,-125,4,2,1,60,0,0
228830,-125,4,2,2,30,0,0
229259,-125,4,2,2,5,0,0

[Colours]
Combo1 : 155,55,255
Combo2 : 0,198,0
Combo3 : 0,145,215
Combo4 : 255,143,32

[HitObjects]
24,104,1688,6,0,B|56:136|105:138|139:113,1,96,2|0,0:0|0:0,0:0:0:0:
136,116,2116,2,0,B|168:106|200:113|224:132,1,64,0|0,0:0|0:0,0:0:0:0:
164,196,2545,2,0,L|152:292,2,96,2|0|0,0:0|0:0|0:0,0:0:0:0:
276,156,3402,6,0,L|264:60,2,96,2|0|0,0:0|0:0|0:0,0:0:0:0:
304,236,4259,2,0,B|336:236|362:213|369:183|360:157,1,96,2|0,0:0|0:0,0:0:0:0:
356,132,4688,2,0,B|396:124|436:132,1,64,0|0,0:0|0:0,0:0:0:0:
276,156,5116,6,0,B|276:124|253:98|223:91|197:100,1,96,2|0,0:0|0:0,0:0:0:0:
172,104,5545,2,0,B|164:64|172:24,1,64,0|0,0:0|0:0,0:0:0:0:
204,176,5973,6,0,B|172:176|146:199|139:229|148:255,1,96,2|0,0:0|0:0,0:0:0:0:
152,280,6402,2,0,B|112:288|72:280,1,64,0|0,0:0|0:0,0:0:0:0:
224,252,6830,6,0,B|225:285|248:312|281:318|307:308,1,96,6|0,0:0|0:0,0:0:0:0:
328,304,7259,2,0,B|336:346|328:388,1,80,8|0,0:0|0:0,0:0:0:0:
296,232,7688,2,0,B|288:190|296:148,1,80,,,0:0:0:0:
372,116,8116,2,0,L|416:120,3,40,0|0|0|0,0:0|0:0|0:0|0:0,0:0:0:0:
448,120,8545,6,0,L|460:252,1,120,6|0,0:0|0:0,0:0:0:0:
460,268,8973,2,0,B|430:259|401:263|376:276,1,80,8|0,0:0|0:0,0:0:0:0:
308,336,9402,2,0,B|268:362|219:362|181:340,1,120,2|0,0:0|0:0,0:0:0:0:
193,346,9830,1,8,0:0:0:0:
120,284,10045,1,2,0:0:0:0:
80,188,10259,6,0,L|92:52,2,120,2|0|0,0:0|0:0|0:0,0:0:0:0:
120,284,11116,2,0,B|159:304|202:306|240:292,1,120,2|0,0:0|0:0,0:0:0:0:
248,268,11545,2,0,B|282:260|316:264|345:276,1,80,8|2,0:0|0:0,0:0:0:0:
408,336,11973,6,0,B|441:296|432:238|393:208,1,120,6|0,0:2|0:0,0:0:0:0:
376,196,12402,1,0,1:0:0:0:
448,148,12616,1,0,0:0:0:0:
368,108,12830,2,0,B|332:96|332:96|292:104|292:104|232:92,1,120,2|0,0:0|0:0,0:0:0:0:
208,88,13259,2,0,B|193:113|188:142|192:169,1,80,8|0,0:0|0:0,0:0:0:0:
224,248,13688,5,6,0:0:0:0:
128,340,14009,1,0,0:0:0:0:
128,340,14116,2,0,B|100:352|70:346|48:328,1,80,8|2,0:0|0:0,0:0:0:0:
24,248,14545,2,0,B|52:237|82:242|104:260,1,80,2|0,0:0|0:0,0:0:0:0:
184,268,14973,2,0,L|188:228,3,40,2|0|0|0,0:0|0:0|1:0|0:0,0:0:0:0:
192,184,15402,6,0,B|234:220|290:224|335:200,1,120,4|0,0:0|0:0,0:0:0:0:
332,180,15830,2,0,B|363:171|395:176|420:192,1,80,8|0,0:0|0:0,0:0:0:0:
480,240,16259,2,0,L|456:368,1,120,2|0,0:0|0:0,0:0:0:0:
457,357,16688,1,8,0:0:0:0:
372,308,16902,1,2,0:0:0:0:
280,360,17116,6,0,B|244:330|196:326|157:344,2,120,6|0|0,0:0|0:0|0:0,0:0:0:0:
372,308,17973,2,0,B|363:258|326:220|281:208,1,120,2|0,0:0|0:0,0:0:0:0:
264,196,18402,2,0,B|262:163|283:135|311:124,1,80,8|2,0:0|0:0,0:0:0:0:
384,72,18830,6,0,B|335:88|284:68|257:29,1,120,6|0,0:0|0:0,0:0:0:0:
272,46,19259,1,8,0:0:0:0:
192,72,19473,1,0,0:0:0:0:
116,32,19688,2,0,L|88:152,1,120,2|0,0:0|0:0,0:0:0:0:
84,180,20116,2,0,B|102:210|136:224|167:220,1,80,8|2,0:0|0:0,0:0:0:0:
264,196,20545,5,4,0:0:0:0:
380,336,20866,1,2,0:0:0:0:
380,336,20973,2,0,L|392:256,1,80,8|0,0:0|0:0,0:0:0:0:
480,232,21402,6,0,L|448:100,1,120,4|8,0:0|0:0,0:0:0:0:
448,40,22259,6,0,L|364:52,1,80,8|0,0:0|0:0,0:0:0:0:
316,120,22688,2,0,L|232:108,1,80,8|0,0:0|0:0,0:0:0:0:
167,55,23116,2,0,B|127:42|85:60|64:97|67:134,1,120,0|0,0:0|0:0,0:0:0:0:
71,105,23545,1,2,0:0:0:0:
148,144,23759,1,8,0:0:0:0:
80,200,23973,6,0,L|64:304,1,80,,,0:0:0:0:
180,248,24402,2,0,L|164:352,1,80,8|0,0:0|0:0,0:0:0:0:
268,356,24830,2,0,B|303:384|349:384|383:361,1,120,2|0,0:0|0:0,0:0:0:0:
404,324,25259,2,0,L|412:224,1,80,2|8,0:0|0:0,0:0:0:0:
492,200,25688,5,0,0:0:0:0:
492,200,25902,2,0,L|484:292,2,80,0|8|0,0:0|0:0|0:0,0:0:0:0:
428,136,26545,2,0,B|395:108|349:107|316:129,1,120,0|0,0:0|0:0,0:0:0:0:
315,129,26973,1,2,0:0:0:0:
240,176,27188,1,8,0:0:0:0:
172,120,27402,6,0,B|156:172|156:172|168:224|168:224|156:284,1,160,0|8,0:0|0:0,0:0:0:0:
220,352,28045,1,0,0:0:0:0:
312,364,28259,1,0,0:0:0:0:
388,316,28473,2,0,L|416:356,2,40,0|0|2,0:0|0:0|0:0,0:0:0:0:
448,248,28902,1,12,0:0:0:0:
440,152,29116,6,0,L|432:72,1,80,,,0:0:0:0:
352,36,29545,2,0,L|344:116,1,80,8|0,0:0|0:0,0:0:0:0:
344,208,29973,2,0,B|330:167|287:146|248:158,1,120,0|0,0:0|0:0,0:0:0:0:
247,158,30402,1,2,0:0:0:0:
268,248,30616,1,8,0:0:0:0:
184,216,30830,6,0,L|100:208,1,80,0|0,0:0|0:0,0:0:0:0:
208,112,31259,2,0,L|292:104,1,80,8|0,0:0|0:0,0:0:0:0:
348,40,31688,2,0,B|334:100|336:160,1,120,0|0,0:0|0:0,0:0:0:0:
372,184,32116,2,0,B|378:229|376:272,1,80,2|8,0:0|0:0,0:0:0:0:
264,344,32545,5,0,0:0:0:0:
264,344,32759,2,0,B|258:299|260:256,2,80,0|8|0,0:0|0:0|0:0,0:0:0:0:
360,356,33402,2,0,B|412:380|471:370|511:337,1,160,0|2,0:0|0:0,0:0:0:0:
444,268,34045,1,8,0:0:0:0:
492,200,34259,6,0,L|504:40,1,160,0|8,0:0|0:0,0:0:0:0:
428,72,34902,1,0,0:0:0:0:
364,120,35116,1,0,0:0:0:0:
288,120,35330,1,0,0:0:0:0:
224,80,35545,2,0,L|172:88,3,40,2|0|8|8,0:0|0:0|0:0|0:0,0:0:0:0:
148,112,35973,6,0,L|132:208,1,80,12|0,0:0|0:0,0:0:0:0:
68,248,36402,2,0,L|84:344,1,80,10|0,0:0|0:0,0:0:0:0:
160,360,36830,2,0,B|198:333|243:327|284:340,1,120,2|0,0:0|0:0,0:0:0:0:
312,360,37259,2,0,B|340:367|367:360|388:344,1,80,2|8,0:0|0:0,0:0:0:0:
460,296,37688,6,0,L|440:132,1,160,2|10,0:0|0:0,0:0:0:0:
376,76,38330,1,0,0:0:0:0:
352,160,38545,2,0,B|312:151|272:152,1,80,2|2,0:0|0:0,0:0:0:0:
272,151,38866,1,0,0:0:0:0:
272,151,38973,1,2,0:0:0:0:
200,204,39188,1,8,0:0:0:0:
276,252,39402,6,0,B|280:299|284:346,2,80,2|0|10,0:0|0:0|0:0,0:0:0:0:
200,204,40045,1,0,0:0:0:0:
112,188,40259,2,0,B|116:104|144:28,1,160,2|2,0:0|0:0,0:0:0:0:
232,24,40902,1,8,0:0:0:0:
272,104,41116,6,0,L|352:92,1,80,2|0,0:0|0:0,0:0:0:0:
332,180,41545,2,0,L|412:168,1,80,10|0,0:0|0:0,0:0:0:0:
476,108,41973,2,0,B|459:188|464:268,1,160,2|2,0:0|0:0,0:0:0:0:
496,348,42616,1,8,0:0:0:0:
408,360,42830,6,0,L|312:348,1,80,2|0,0:0|0:0,0:0:0:0:
268,288,43259,2,0,L|188:297,1,80,10|0,0:0|0:0,0:0:0:0:
124,356,43688,2,0,B|83:370|39:346|28:304,1,120,2|0,0:0|0:0,0:0:0:0:
32,280,44116,2,0,L|48:200,1,80,2|8,0:0|0:0,0:0:0:0:
144,88,44545,6,0,L|164:256,1,160,2|10,0:0|0:0,0:0:0:0:
208,324,45188,1,0,0:0:0:0:
288,356,45402,2,0,B|317:368|349:359|368:336,1,80,2|0,0:0|0:0,0:0:0:0:
362,342,45723,1,0,0:0:0:0:
362,342,45830,1,2,0:0:0:0:
400,244,46045,1,8,0:0:0:0:
308,204,46259,6,0,B|300:235|303:266|316:292,2,80,2|0|10,0:0|0:0|0:0,0:0:0:0:
396,152,46902,1,0,0:0:0:0:
312,108,47116,2,0,B|254:102|205:150|208:208,1,160,2|2,0:0|0:0,0:0:0:0:
308,204,47759,1,8,0:0:0:0:
396,152,47973,6,0,B|424:97|397:30|340:8,2,160,2|8|2,0:0|0:0|0:0,0:0:0:0:
308,204,49045,2,0,L|236:218,2,40,0|0|2,0:0|0:0|0:0,0:0:0:0:
391,235,49473,1,8,0:0:0:0:
380,324,49688,6,0,B|346:311|310:314|280:328,1,80,4|0,0:0|0:0,0:0:0:0:
260,340,50009,1,0,0:0:0:0:
260,340,50116,2,0,B|232:347|205:345|180:336,1,80,2|0,0:0|0:0,0:0:0:0:
100,300,50545,2,0,L|132:132,1,160,4|8,0:3|0:0,0:0:0:0:
172,64,51188,1,0,0:0:0:0:
244,112,51402,6,0,L|340:104,1,80,2|0,0:0|0:0,0:0:0:0:
352,112,51723,1,0,0:0:0:0:
380,116,51830,1,2,0:0:0:0:
456,172,52045,1,0,0:0:0:0:
456,172,52259,2,0,L|440:272,1,80,6|8,0:0|0:0,0:0:0:0:
356,252,52688,2,0,L|340:352,1,80,8|0,0:0|0:0,0:0:0:0:
256,352,53116,6,0,B|209:329|157:328|112:344,1,120,4|0,0:0|0:0,0:0:0:0:
104,352,53545,2,0,B|90:323|88:292|96:264,1,80,2|8,0:0|0:3,0:0:0:0:
12,240,53973,2,0,B|27:211|51:191|79:182,1,80,4|0,0:3|0:0,0:0:0:0:
44,104,54402,2,0,B|75:97|106:103|131:119,1,80,8|0,0:0|0:0,0:0:0:0:
208,184,54830,6,0,B|234:198|263:200|288:192,1,80,4|0,0:0|0:0,0:0:0:0:
312,180,55152,1,0,0:0:0:0:
340,172,55259,2,0,B|397:154|456:167|500:200,1,160,2|8,0:0|0:3,0:0:0:0:
504,284,55902,1,0,0:0:0:0:
504,284,56009,1,0,0:0:0:0:
504,284,56116,2,0,L|496:372,1,80,8|0,0:0|0:0,0:0:0:0:
412,228,56545,6,0,L|424:120,1,80,4|0,0:0|0:0,0:0:0:0:
440,124,56866,1,0,0:0:0:0:
440,124,56973,2,0,L|428:28,1,80,2|0,0:0|0:0,0:0:0:0:
352,88,57402,2,0,B|304:129|234:124|193:81,1,160,4|8,0:3|0:0,0:0:0:0:
128,48,58045,1,0,0:0:0:0:
72,116,58259,6,0,L|80:224,1,80,4|0,0:0|0:0,0:0:0:0:
84,220,58580,1,0,0:0:0:0:
92,248,58688,1,2,0:0:0:0:
88,340,58902,1,0,0:0:0:0:
88,340,59116,2,0,B|118:330|149:330|177:336,1,80,2|0,0:0|0:0,0:0:0:0:
256,328,59545,2,0,B|261:287|250:248,1,80,8|0,0:0|0:0,0:0:0:0:
208,176,59973,6,0,B|233:217|282:234|328:220|355:189,1,160,4|8,0:0|0:0,0:0:0:0:
288,132,60616,1,0,0:0:0:0:
152,124,60830,2,0,L|140:236,1,80,4|8,0:0|0:0,0:0:0:0:
192,276,61259,1,8,0:0:0:0:
56,320,61473,6,0,L|64:160,1,160,4|8,0:0|0:3,0:0:0:0:
84,64,62116,1,8,0:3:0:0:
180,52,62330,1,8,0:3:0:0:
276,44,62545,2,0,L|336:40,3,40,0|0|0|0,0:0|0:0|0:0|0:0,0:0:0:0:
380,96,62973,2,0,L|440:92,3,40,0|0|8|8,0:0|0:0|0:0|0:0,0:0:0:0:
472,144,63402,6,0,L|468:256,1,80,4|0,0:0|0:0,0:0:0:0:
468,252,63723,1,0,0:0:0:0:
464,280,63830,2,0,B|460:316|427:340|393:336,1,80,8|0,0:0|0:0,0:0:0:0:
380,252,64259,2,0,B|344:248|320:215|324:181,1,80,0|0,0:0|0:0,0:0:0:0:
408,168,64688,1,8,0:0:0:0:
232,196,64902,6,0,B|234:148|269:109|316:100|355:115,1,160,4|0,2:2|0:0,0:0:0:0:
343,112,65438,1,0,0:0:0:0:
343,112,65545,1,8,0:0:0:0:
408,168,65759,1,0,0:0:0:0:
476,112,65973,2,0,B|485:83|483:53|472:27,1,80,0|0,0:0|0:0,0:0:0:0:
336,192,66402,2,0,B|327:221|329:251|340:277,1,80,8|0,0:0|0:0,0:0:0:0:
416,352,66830,5,4,0:0:0:0:
312,352,67045,1,0,0:0:0:0:
312,352,67152,1,0,0:0:0:0:
312,352,67259,2,0,L|212:348,1,80,8|0,0:0|0:0,0:0:0:0:
136,344,67688,2,0,B|187:351|233:318|247:268|233:226,1,160,0|8,0:0|0:0,0:0:0:0:
136,176,68330,6,0,L|148:284,1,80,4|0,0:0|0:0,0:0:0:0:
47,276,68759,1,0,0:0:0:0:
47,276,68866,1,0,0:0:0:0:
47,276,68973,2,0,L|51:176,1,80,8|0,0:0|0:0,0:0:0:0:
136,176,69402,1,0,0:0:0:0:
211,141,69616,2,0,B|201:131|199:116|204:104,5,40,8|8|8|0|8|8,0:0|0:0|0:0|0:0|0:0|0:0,0:0:0:0:
232,72,70259,6,0,B|252:96|257:128|248:156,1,80,2|0,0:0|0:0,0:0:0:0:
240,172,70580,1,0,0:0:0:0:
236,200,70688,2,0,L|320:192,1,80,8|0,0:0|0:0,0:0:0:0:
460,252,71116,2,0,L|376:244,1,80,0|0,0:0|0:0,0:0:0:0:
380,244,71438,1,0,0:0:0:0:
380,244,71545,1,8,0:0:0:0:
192,344,71759,6,0,L|356:324,1,160,4|0,2:2|0:0,0:0:0:0:
350,324,72295,1,0,0:0:0:0:
350,324,72402,1,8,0:0:0:0:
380,244,72616,1,0,0:0:0:0:
416,164,72830,1,0,0:0:0:0:
452,84,73045,1,0,0:0:0:0:
452,84,73152,1,0,0:0:0:0:
452,84,73259,22,0,L|356:64,1,80,8|0,0:0|0:0,0:0:0:0:
288,92,73688,5,12,0:0:0:0:
452,60,74116,38,0,L|356:40,1,80,8|0,0:0|0:0,0:0:0:0:
288,68,74545,5,6,0:0:0:0:
348,132,74759,2,0,L|426:148,1,80,8|8,0:0|0:0,0:0:0:0:
280,196,75188,38,0,B|196:200|196:200|108:244,1,160,4|0,0:0|0:0,0:0:0:0:
111,256,75723,1,0,0:0:0:0:
112,284,75830,2,0,L|124:368,1,80,8|0,0:0|0:0,0:0:0:0:
200,324,76259,2,0,L|244:316,3,40,2|0|8|8,0:0|0:0|0:0|0:0,0:0:0:0:
300,348,76688,2,0,L|344:340,3,40,8|0|0|0,0:0|0:0|0:0|0:0,0:0:0:0:
380,356,77116,6,0,B|369:324|373:291|388:264,1,80,4|0,0:0|0:0,0:0:0:0:
400,256,77438,1,0,0:0:0:0:
420,236,77545,2,0,L|336:224,1,80,8|0,0:0|0:0,0:0:0:0:
312,140,77973,2,0,L|228:152,1,80,0|0,0:0|0:0,0:0:0:0:
176,220,78402,1,8,0:0:0:0:
124,124,78616,6,0,B|135:218|116:308,1,160,6|0,0:0|0:0,0:0:0:0:
120,283,79152,1,0,0:0:0:0:
120,283,79259,1,8,0:0:0:0:
36,312,79473,1,0,0:0:0:0:
40,220,79688,2,0,B|34:169|48:120,1,80,0|0,0:0|0:0,0:0:0:0:
200,80,80116,2,0,B|207:120|203:159,1,80,8|0,0:0|0:0,0:0:0:0:
124,200,80545,5,4,0:0:0:0:
200,240,80759,1,0,0:0:0:0:
200,240,80866,1,0,0:0:0:0:
200,240,80973,2,0,B|229:257|265:251|288:229,1,80,8|0,0:0|0:0,0:0:0:0:
336,172,81402,2,0,B|389:143|455:166|480:219,1,160,0|8,0:0|0:0,0:0:0:0:
376,320,82045,6,0,B|390:289|393:257|388:227,1,80,4|0,0:0|0:0,0:0:0:0:
336,172,82473,1,0,0:0:0:0:
336,172,82580,1,0,0:0:0:0:
336,172,82688,1,8,0:0:0:0:
280,248,82902,2,0,L|200:240,1,80,0|0,0:0|0:0,0:0:0:0:
116,268,83330,2,0,L|112:312,5,40,0|0|8|0|0|0,0:0|0:0|0:0|0:0|0:0|0:0,0:0:0:0:
68,316,83973,6,0,B|58:285|64:253|80:228,1,80,4|0,0:0|0:0,0:0:0:0:
96,220,84295,1,0,0:0:0:0:
120,204,84402,2,0,B|133:170|130:134|116:104,1,80,8|0,0:0|0:0,0:0:0:0:
68,56,84830,2,0,B|96:39|128:35|156:44,1,80,0|0,0:0|0:0,0:0:0:0:
144,41,85152,1,0,0:0:0:0:
144,41,85259,1,8,0:0:0:0:
224,96,85473,6,0,B|278:114|334:100|372:65,1,160,6|0,0:0|0:0,0:0:0:0:
373,65,86009,1,0,0:0:0:0:
373,65,86116,1,8,0:0:0:0:
412,144,86330,1,0,0:0:0:0:
448,224,86545,1,0,0:0:0:0:
476,308,86759,1,0,0:0:0:0:
476,308,86866,1,0,0:0:0:0:
476,308,86973,22,0,B|447:296|416:301|392:316,1,80,10|0,0:0|0:0,0:0:0:0:
316,344,87402,5,12,0:0:0:0:
448,224,87830,38,0,B|419:212|388:217|364:232,1,80,8|0,0:0|0:0,0:0:0:0:
288,260,88259,5,4,0:0:0:0:
208,300,88473,1,8,0:0:0:0:
208,300,88580,1,0,0:0:0:0:
208,300,88688,1,8,0:0:0:0:
140,244,88902,38,0,B|138:148|176:60,1,160,4|0,0:0|0:0,0:0:0:0:
188,69,89438,1,0,0:0:0:0:
216,66,89545,2,0,L|303:56,1,80,8|0,0:0|0:0,0:0:0:0:
370,104,89973,2,0,L|378:176,3,40,2|0|0|0,0:0|0:0|0:0|0:0,0:0:0:0:
424,196,90402,2,0,L|432:268,3,40,8|0|0|0,0:0|0:0|0:0|0:0,0:0:0:0:
473,293,90830,1,2,0:0:0:0:
128,76,104545,6,0,B|99:86|79:109|72:136,1,80,2|0,0:0|0:0,0:0:0:0:
160,152,104973,2,0,B|143:177|141:207|152:233,1,80,2|0,0:0|0:0,0:0:0:0:
232,196,105402,2,0,L|360:204,1,120,2|0,0:0|0:0,0:0:0:0:
351,203,105830,1,2,0:0:0:0:
428,160,106045,1,8,0:0:0:0:
492,220,106259,6,0,L|484:304,1,80,2|0,0:0|0:0,0:0:0:0:
408,348,106688,1,10,0:0:0:0:
408,348,106902,1,0,0:0:0:0:
324,324,107116,2,0,B|276:307|227:308|183:324,1,120,2|0,0:0|0:0,0:0:0:0:
176,344,107545,2,0,B|146:358|113:354|88:336,1,80,2|8,0:0|0:0,0:0:0:0:
40,256,107973,5,12,0:0:0:0:
40,256,108188,2,0,L|28:172,2,80,0|0|0,0:0|0:0|0:0,0:0:0:0:
116,212,108830,2,0,L|100:112,1,80,2|0,0:0|0:0,0:0:0:0:
103,133,109152,1,0,0:0:0:0:
103,133,109259,1,2,0:0:0:0:
192,148,109473,1,8,0:0:0:0:
160,68,109688,6,0,B|208:60|208:60|272:84|272:84|348:72,1,160,2|10,0:0|0:0,0:0:0:0:
396,44,110330,1,0,0:0:0:0:
476,80,110545,1,2,0:0:0:0:
492,168,110759,2,0,L|528:152,2,40,2|0|2,0:0|0:0|0:0,0:0:0:0:
484,252,111188,1,8,0:0:0:0:
484,252,111295,1,8,0:0:0:0:
484,252,111402,6,0,B|453:238|418:243|392:260,1,80,12|0,0:0|0:0,0:0:0:0:
324,216,111830,2,0,B|316:243|318:271|328:294,1,80,10|0,0:0|0:0,0:0:0:0:
376,368,112259,2,0,B|340:326|282:319|237:343,1,120,2|0,0:0|0:0,0:0:0:0:
267,331,112688,1,2,0:0:0:0:
184,360,112902,1,8,0:0:0:0:
108,320,113116,6,0,L|120:240,1,80,2|0,0:0|0:0,0:0:0:0:
208,252,113545,2,0,L|196:172,1,80,10|0,0:0|0:0,0:0:0:0:
112,144,113973,2,0,L|124:64,1,80,2|0,0:0|0:0,0:0:0:0:
123,64,114295,1,0,0:0:0:0:
123,64,114402,1,2,0:0:0:0:
204,28,114616,1,8,0:0:0:0:
276,76,114830,6,0,L|356:80,1,80,2|0,0:0|0:0,0:0:0:0:
428,32,115259,1,10,0:0:0:0:
428,32,115473,1,0,0:0:0:0:
452,116,115688,2,0,B|437:176|448:236,1,120,2|0,0:0|0:0,0:0:0:0:
468,272,116116,2,0,B|442:292|408:294|380:280,1,80,2|8,0:0|0:0,0:0:0:0:
372,372,116545,6,0,B|339:367|314:344|304:315,1,80,2|0,0:0|0:0,0:0:0:0:
236,376,116973,2,0,B|216:350|214:316|228:288,1,80,10|0,0:0|0:0,0:0:0:0:
136,288,117402,2,0,B|140:255|163:230|191:220,1,80,6|8,0:0|0:0,0:0:0:0:
180,136,117830,2,0,B|204:134|226:143|240:160,3,40,0|0|8|0,0:0|0:0|0:0|0:0,0:0:0:0:
256,168,118259,6,0,B|288:181|324:170|344:145,1,80,6|0,0:0|0:0,0:0:0:0:
344,132,118580,1,0,0:0:0:0:
368,112,118688,2,0,B|390:94|418:91|443:100,1,80,2|0,0:0|0:0,0:0:0:0:
420,184,119116,2,0,B|437:271|428:356,1,160,4|8,0:3|0:0,0:0:0:0:
340,356,119759,1,0,0:0:0:0:
280,292,119973,6,0,B|272:250|280:208,1,80,2|0,0:0|0:0,0:0:0:0:
296,188,120295,1,0,0:0:0:0:
312,164,120402,1,2,0:0:0:0:
372,100,120616,1,0,0:0:0:0:
372,100,120830,2,0,L|464:112,1,80,4|8,0:0|0:0,0:0:0:0:
296,40,121259,2,0,L|204:52,1,80,8|0,0:0|0:0,0:0:0:0:
120,48,121688,6,0,B|104:93|112:140|136:176,1,120,6|0,0:0|0:0,0:0:0:0:
128,196,122116,2,0,L|40:204,1,80,2|0,0:0|0:0,0:0:0:0:
4,296,122545,2,0,L|83:288,1,80,,,0:0:0:0:
176,280,122973,2,0,B|205:281|231:268|248:248,1,80,8|0,0:0|0:0,0:0:0:0:
260,160,123402,6,0,B|298:168|324:197|332:231,1,80,2|0,0:0|0:0,0:0:0:0:
332,232,123723,1,0,0:0:0:0:
340,260,123830,2,0,B|392:286|453:271|487:229,1,160,2|8,0:0|0:0,0:0:0:0:
400,176,124473,1,0,0:0:0:0:
400,176,124580,1,0,0:0:0:0:
400,176,124688,2,0,L|392:96,1,80,8|0,0:0|0:0,0:0:0:0:
250,245,125116,6,0,L|258:325,1,80,2|0,0:0|0:0,0:0:0:0:
241,347,125438,1,0,0:0:0:0:
213,351,125545,2,0,L|129:359,1,80,2|0,0:0|0:0,0:0:0:0:
52,332,125973,2,0,B|103:305|119:240|88:192,1,160,4|8,3:0|0:0,0:0:0:0:
24,136,126616,1,0,0:0:0:0:
76,56,126830,6,0,L|156:48,1,80,2|0,0:0|0:0,0:0:0:0:
180,60,127152,1,0,0:0:0:0:
204,76,127259,1,2,0:0:0:0:
284,112,127473,1,0,0:0:0:0:
368,80,127688,2,0,L|356:172,1,80,6|0,0:0|0:0,0:0:0:0:
448,176,128116,2,0,L|436:268,1,80,8|0,0:0|0:0,0:0:0:0:
356,300,128545,6,0,L|168:272,1,160,4|8,0:0|0:0,0:0:0:0:
124,228,129188,1,0,0:0:0:0:
192,172,129402,2,0,B|204:145|203:116|192:92,1,80,4|8,0:0|0:0,0:0:0:0:
112,60,129830,1,8,0:0:0:0:
288,48,130045,6,0,L|456:40,1,160,4|8,0:0|0:3,0:0:0:0:
408,120,130688,1,8,0:3:0:0:
452,196,130902,1,8,0:3:0:0:
372,232,131116,2,0,L|340:260,3,40,2|0|0|8,0:0|0:0|0:0|0:0,0:0:0:0:
384,316,131545,2,0,L|352:344,3,40,0|8|8|8,0:0|0:0|0:0|0:0,0:0:0:0:
312,352,131973,6,0,B|284:343|263:324|252:300,1,80,4|0,0:0|0:0,0:0:0:0:
244,276,132295,1,0,0:0:0:0:
240,248,132402,2,0,B|204:242|169:257|148:284,1,80,8|0,0:0|0:0,0:0:0:0:
100,328,132830,2,0,B|82:305|76:278|80:252,1,80,0|0,0:0|0:0,0:0:0:0:
132,180,133259,1,8,0:0:0:0:
36,136,133473,6,0,L|204:120,1,160,6|0,0:0|0:0,0:0:0:0:
195,120,134009,1,0,0:0:0:0:
195,120,134116,1,8,0:0:0:0:
280,136,134330,1,0,0:0:0:0:
368,148,134545,2,0,B|398:139|427:143|452:156,1,80,,,0:0:0:0:
311,227,134973,2,0,B|281:236|252:232|227:219,1,80,8|0,0:0|0:0,0:0:0:0:
400,240,135402,5,4,0:0:0:0:
400,240,135830,2,0,L|404:324,1,80,8|0,0:0|0:0,0:0:0:0:
280,356,136259,2,0,L|292:244,1,80,0|0,0:0|0:0,0:0:0:0:
288,276,136580,1,0,0:0:0:0:
288,276,136688,1,8,0:0:0:0:
317,173,136902,6,0,B|295:211|248:226|206:209|185:177,1,160,4|0,0:0|0:0,0:0:0:0:
184,176,137438,1,0,0:0:0:0:
184,176,137545,1,8,0:0:0:0:
148,96,137759,1,0,0:0:0:0:
192,20,137973,2,0,B|213:26|226:47|224:68,3,40,0|0|8|8,0:0|0:0|0:0|0:0,0:0:0:0:
291,45,138402,2,0,B|296:32|307:23|320:20,3,40,8|0|8|8,0:0|0:0|0:0|0:0,0:0:0:0:
360,36,138830,6,0,B|355:65|331:85|305:88,1,80,2|0,0:0|0:0,0:0:0:0:
280,96,139152,1,0,0:0:0:0:
252,104,139259,2,0,L|264:200,1,80,8|0,0:0|0:0,0:0:0:0:
380,288,139688,2,0,L|368:192,1,80,0|0,0:0|0:0,0:0:0:0:
370,208,140009,1,0,0:0:0:0:
370,208,140116,1,8,0:0:0:0:
264,232,140330,6,0,B|218:237|218:237|170:278|170:278|111:289,1,160,4|0,0:0|0:0,0:0:0:0:
120,287,140866,1,0,0:0:0:0:
120,287,140973,1,8,0:0:0:0:
137,201,141188,1,0,0:0:0:0:
153,113,141402,1,0,0:0:0:0:
172,28,141616,1,0,0:0:0:0:
172,28,141723,1,0,0:0:0:0:
172,28,141830,22,0,L|88:44,1,80,8|0,0:0|0:0,0:0:0:0:
8,56,142259,5,12,0:0:0:0:
153,113,142688,38,0,L|237:129,1,80,8|0,0:0|0:0,0:0:0:0:
317,141,143116,5,4,0:0:0:0:
380,204,143330,2,0,L|296:220,1,80,8|8,0:0|0:0,0:0:0:0:
144,260,143759,38,0,B|228:268|228:268|316:308,1,160,4|0,0:0|0:0,0:0:0:0:
316,320,144295,1,0,0:0:0:0:
340,336,144402,2,0,B|372:356|372:356|428:356,1,80,8|0,0:0|0:0,0:0:0:0:
468,268,144830,2,0,L|468:228,3,40,2|0|8|8,0:0|0:0|0:0|0:0,0:0:0:0:
408,180,145259,2,0,L|408:140,3,40,0|0|0|0,0:0|0:0|0:0|0:0,0:0:0:0:
460,84,145688,6,0,B|431:65|398:62|368:72,1,80,4|0,0:0|0:0,0:0:0:0:
356,72,146009,1,0,0:0:0:0:
332,88,146116,2,0,L|320:168,1,80,8|0,0:0|0:0,0:0:0:0:
224,176,146545,2,0,L|236:256,1,80,0|0,0:0|0:0,0:0:0:0:
316,320,146973,1,8,0:0:0:0:
200,336,147188,6,0,B|115:326|32:336,1,160,6|0,0:0|0:0,0:0:0:0:
40,335,147723,1,0,0:0:0:0:
40,335,147830,1,8,0:0:0:0:
4,256,148045,1,0,0:0:0:0:
92,244,148259,2,0,B|139:241|184:248,1,80,8|0,0:0|0:0,0:0:0:0:
368,200,148688,2,0,B|328:193|288:197,1,80,8|0,0:0|0:0,0:0:0:0:
244,272,149116,5,4,0:0:0:0:
216,188,149330,1,0,0:0:0:0:
216,188,149438,1,0,0:0:0:0:
216,188,149545,2,0,B|207:159|209:129|220:103,1,80,8|0,0:0|0:0,0:0:0:0:
276,44,149973,2,0,B|312:64|352:44|352:44|396:24|440:44,1,160,2|8,0:0|0:0,0:0:0:0:
488,136,150616,6,0,B|452:156|412:136|412:136|368:116|324:136,1,160,4|0,0:0|0:0,0:0:0:0:
333,132,151152,1,0,0:0:0:0:
333,132,151259,1,8,0:0:0:0:
268,188,151473,2,0,B|240:188|216:172|204:148,1,80,0|2,0:0|0:0,0:0:0:0:
192,60,151902,2,0,B|174:65|158:75|148:88,5,40,8|8|0|0|8|8,0:0|0:0|0:0|0:0|0:0|0:0,0:0:0:0:
136,100,152545,6,0,L|128:188,1,80,4|0,0:0|0:0,0:0:0:0:
104,188,152866,1,0,0:0:0:0:
104,188,152973,2,0,L|116:272,1,80,8|0,0:0|0:0,0:0:0:0:
60,340,153402,2,0,B|84:358|114:361|140:352,1,80,0|0,0:0|0:0,0:0:0:0:
136,353,153723,1,0,0:0:0:0:
136,353,153830,1,8,0:0:0:0:
216,280,154045,6,0,B|257:241|315:231|364:248,1,160,6|0,0:0|0:0,0:0:0:0:
365,248,154580,1,0,0:0:0:0:
365,248,154688,1,8,0:0:0:0:
440,296,154902,1,0,0:0:0:0:
488,224,155116,1,0,0:0:0:0:
480,136,155330,1,0,0:0:0:0:
480,136,155438,1,0,0:0:0:0:
480,136,155545,22,0,B|446:151|408:145|380:124,1,80,8|0,0:0|0:0,0:0:0:0:
368,56,155973,5,12,0:0:0:0:
365,248,156402,38,0,B|328:241|299:216|287:183,1,80,8|0,0:0|0:0,0:0:0:0:
314,119,156830,5,4,0:0:0:0:
368,56,157045,1,8,0:0:0:0:
368,56,157152,1,0,0:0:0:0:
368,56,157259,1,8,0:0:0:0:
440,92,157473,38,0,B|463:178|464:264,1,160,4|0,0:0|0:0,0:0:0:0:
436,260,158009,1,0,0:0:0:0:
436,260,158116,2,0,B|422:299|420:340|428:378,1,80,8|0,0:0|0:0,0:0:0:0:
340,352,158545,2,0,L|296:348,3,40,2|0|8|8,0:0|0:0|0:0|0:0,0:0:0:0:
243,292,158973,2,0,L|204:296,3,40,0|0|0|0,0:0|0:0|0:0|0:0,0:0:0:0:
160,320,159402,5,2,0:0:0:0:
160,320,159509,1,2,0:0:0:0:
160,320,159616,2,0,L|152:232,1,80,2|8,0:0|0:0,0:0:0:0:
72,204,160045,1,2,0:0:0:0:
72,204,160152,1,0,0:0:0:0:
72,204,160259,2,0,L|64:116,1,80,2|8,0:0|0:0,0:0:0:0:
132,56,160688,2,0,L|184:48,3,40,8|0|8|0,0:0|0:0|0:0|0:0,0:0:0:0:
204,72,161116,5,2,0:0:0:0:
204,72,161223,1,0,0:0:0:0:
204,72,161330,2,0,L|248:76,2,40,2|0|8,0:0|0:0|0:0,0:0:0:0:
120,148,161759,1,2,0:0:0:0:
120,148,161866,1,0,0:0:0:0:
120,148,161973,2,0,L|76:152,2,40,2|0|8,0:0|0:0|0:0,0:0:0:0:
224,188,162402,1,2,0:0:0:0:
236,216,162509,1,0,0:0:0:0:
240,248,162616,1,2,0:0:0:0:
236,280,162723,1,0,0:0:0:0:
232,312,162830,6,0,L|144:328,1,80,4|0,0:0|0:0,0:0:0:0:
40,256,163259,2,0,L|118:241,1,80,8|2,0:0|0:0,0:0:0:0:
220,140,163688,2,0,L|132:156,1,80,0|0,0:0|0:0,0:0:0:0:
168,64,164116,1,8,0:0:0:0:
312,84,164330,6,0,B|290:170|308:256,1,160,4|0,0:0|0:0,0:0:0:0:
288,336,164973,1,2,0:0:0:0:
196,352,165188,1,0,0:0:0:0:
196,352,165295,1,0,0:0:0:0:
196,352,165402,2,0,L|136:344,3,40,2|8|8|8,0:0|0:0|0:0|0:0,0:0:0:0:
80,344,165830,2,0,B|79:313|100:288|127:280,1,80,2|8,0:0|0:0,0:0:0:0:
212,224,166259,6,0,L|200:136,1,80,2|0,0:0|0:0,0:0:0:0:
132,68,166688,1,8,0:0:0:0:
132,68,166795,1,0,0:0:0:0:
132,68,166902,2,0,B|156:47|187:40|216:44,1,80,0|2,0:0|0:0,0:0:0:0:
296,92,167330,2,0,L|344:80,2,40,0|0|8,0:0|0:0|0:0,0:0:0:0:
201,144,167759,6,0,B|227:183|211:229|211:229|195:275|209:298,1,160,12|0,0:0|0:0,0:0:0:0:
234,310,168295,1,0,0:0:0:0:
262,316,168402,2,0,B|270:348|302:367|332:361,1,80,8|0,0:0|0:0,0:0:0:0:
402,242,168830,2,0,B|372:245|349:264|338:290,1,80,2|0,0:0|0:0,0:0:0:0:
474,366,169259,2,0,B|443:363|419:342|410:315,1,80,8|2,0:0|0:0,0:0:0:0:
490,282,169688,5,2,0:0:0:0:
490,282,169902,1,0,0:0:0:0:
505,193,170116,2,0,L|509:109,1,80,8|0,0:0|0:0,0:0:0:0:
504,24,170545,1,2,0:0:0:0:
440,88,170759,2,0,L|433:139,2,40,2|0|8,0:0|0:0|0:0,0:0:0:0:
354,54,171188,6,0,B|296:33|233:67|218:125,1,160,4|0,0:0|0:0,0:0:0:0:
221,137,171723,1,0,0:0:0:0:
228,166,171830,2,0,B|243:193|243:225|232:251,1,80,8|0,0:0|0:0,0:0:0:0:
148,216,172259,2,0,L|100:224,4,40,2|0|2|8|8,0:0|0:0|0:0|0:0|0:0,0:0:0:0:
148,216,173116,5,2,0:0:0:0:
100,152,173330,2,0,L|88:108,2,40,0|0|8,0:0|0:0|0:0,0:0:0:0:
148,216,173759,1,8,0:0:0:0:
208,160,173973,5,2,0:0:0:0:
232,240,174188,2,0,L|280:248,2,40,0|0|8,0:0|0:0|0:0,0:0:0:0:
148,216,174616,1,8,0:0:0:0:
168,296,174830,5,2,0:0:0:0:
92,272,175045,2,0,L|84:320,2,40,0|0|8,0:0|0:0|0:0,0:0:0:0:
148,216,175473,1,8,0:0:0:0:
72,192,175688,6,0,L|-12:208,2,80,2|8|8,0:0|0:0|0:0,0:0:0:0:
260,116,176545,5,6,0:0:0:0:
317,171,176759,2,0,L|335:212,2,40,0|0|8,0:0|0:0|0:0,0:0:0:0:
260,116,177188,1,8,0:0:0:0:
209,180,177402,5,0,0:0:0:0:
173,105,177616,2,0,L|124:104,2,40,0|0|8,0:0|0:0|0:0,0:0:0:0:
260,116,178045,1,8,0:0:0:0:
227,40,178259,5,0,0:0:0:0:
306,51,178473,2,0,L|306:2,2,40,0|0|8,0:0|0:0|0:0,0:0:0:0:
260,116,178902,1,8,0:0:0:0:
338,127,179116,6,0,L|418:98,2,80,2|0|8,0:0|0:0|0:0,0:0:0:0:
338,127,179973,6,0,L|346:227,1,80,4|0,0:0|0:0,0:0:0:0:
432,248,180402,2,0,L|508:196,1,80,0|2,0:0|0:0,0:0:0:0:
484,108,180830,2,0,L|411:73,1,80,2|0,0:0|0:0,0:0:0:0:
411,73,181152,1,0,0:0:0:0:
411,73,181259,1,0,0:0:0:0:
256,188,181688,6,0,L|156:224,1,80,4|0,0:0|0:0,0:0:0:0:
108,156,182116,2,0,L|124:68,1,80,0|2,0:0|0:0,0:0:0:0:
212,40,182545,2,0,L|272:100,1,80,2|0,0:0|0:0,0:0:0:0:
268,96,182866,1,0,0:0:0:0:
268,96,182973,1,0,0:0:0:0:
316,288,183402,6,0,B|334:313|364:324|392:320,1,80,4|0,0:0|0:0,0:0:0:0:
380,228,183830,2,0,B|411:233|439:220|456:196,1,80,0|0,0:0|0:0,0:0:0:0:
384,132,184259,2,0,B|409:114|420:84|416:56,1,80,4|0,0:0|0:0,0:0:0:0:
328,68,184688,1,0,0:0:0:0:
328,68,184902,6,0,L|216:80,1,80,8|0,0:0|0:0,0:0:0:0:
200,156,185330,2,0,L|152:160,2,40,0|8|8,0:0|0:0|0:0,0:0:0:0:
360,152,185759,2,0,L|248:164,1,80,8|0,0:0|0:0,0:0:0:0:
232,240,186188,2,0,L|184:244,2,40,8|8|8,0:0|0:0|0:0,0:0:0:0:
400,232,186616,2,0,L|288:244,1,80,8|0,0:0|0:0,0:0:0:0:
272,320,187045,2,0,L|224:324,2,40,8|8|8,0:0|0:0|0:0,0:0:0:0:
384,360,187473,5,8,0:0:0:0:
384,360,187580,1,8,0:0:0:0:
384,360,187688,2,0,L|432:364,3,40,0|0|8|8,0:0|0:0|0:0|0:0,0:0:0:0:
472,336,188116,2,0,L|472:296,3,40,8|8|8|8,0:0|0:0|0:0|0:0,0:0:0:0:
396,284,188545,5,8,0:0:0:0:
396,260,189616,2,0,L|404:176,1,80,2|6,0:0|0:0,0:0:0:0:
416,56,190045,6,0,B|377:101|313:109|265:81,1,160,8|0,0:0|0:0,0:0:0:0:
252,56,190580,1,8,0:0:0:0:
232,28,190688,2,0,B|195:25|161:38|136:60,1,80,8|8,0:0|0:0,0:0:0:0:
68,108,191116,2,0,L|60:52,2,40,0|0|8,0:0|0:0|0:0,0:0:0:0:
144,160,191545,1,0,0:0:0:0:
136,192,191652,1,0,0:0:0:0:
128,224,191759,1,8,0:0:0:0:
120,256,191866,1,8,0:0:0:0:
112,288,191973,6,0,L|200:304,1,80,2|0,0:0|0:0,0:0:0:0:
190,302,192295,1,0,0:0:0:0:
190,302,192402,1,8,0:0:0:0:
272,248,192616,1,0,0:0:0:0:
352,316,192830,2,0,L|364:216,1,80,0|0,0:0|0:0,0:0:0:0:
361,236,193152,1,0,0:0:0:0:
361,236,193259,1,8,0:0:0:0:
436,104,193473,6,0,L|448:280,1,160,4|0,0:0|0:0,0:0:0:0:
446,263,194009,1,0,0:0:0:0:
446,263,194116,1,8,0:0:0:0:
488,344,194330,2,0,B|456:334|424:333|395:340,1,80,0|0,0:0|0:0,0:0:0:0:
304,364,194759,1,8,0:0:0:0:
336,284,194973,2,0,L|332:244,3,40,0|0|8|8,0:0|0:0|0:0|0:0,0:0:0:0:
328,208,195402,6,0,L|240:216,1,80,2|0,0:0|0:0,0:0:0:0:
248,215,195723,1,0,0:0:0:0:
248,215,195830,1,8,0:0:0:0:
192,144,196045,1,0,0:0:0:0:
48,72,196259,2,0,L|127:79,1,80,0|0,0:0|0:0,0:0:0:0:
127,79,196580,1,0,0:0:0:0:
127,79,196688,1,8,0:0:0:0:
252,20,196902,6,0,B|231:99|249:178,1,160,6|0,0:0|0:0,0:0:0:0:
249,178,197438,1,0,0:0:0:0:
249,178,197545,1,8,0:0:0:0:
336,232,197759,1,0,0:0:0:0:
336,232,197973,2,0,L|424:236,1,80,0|0,0:0|0:0,0:0:0:0:
216,272,198402,6,0,L|132:276,1,80,8|0,0:0|0:0,0:0:0:0:
52,324,198830,5,12,0:0:0:0:
304,276,199259,38,0,L|388:280,1,80,8|0,0:0|0:0,0:0:0:0:
456,328,199688,5,4,0:0:0:0:
472,240,199902,1,8,0:0:0:0:
484,156,200116,1,8,0:0:0:0:
400,184,200330,38,0,B|304:176|304:176|228:135,1,160,4|0,0:0|0:0,0:0:0:0:
240,120,200866,1,0,0:0:0:0:
236,96,200973,2,0,B|204:72|204:72|148:72,1,80,8|0,0:0|0:0,0:0:0:0:
68,136,201402,2,0,B|43:137|23:154|16:176,3,40,2|0|8|8,0:0|0:0|0:0|0:0,0:0:0:0:
31,232,201830,2,0,B|42:242|55:247|68:248,3,40,0|0|0|0,0:0|0:0|0:0|0:0,0:0:0:0:
96,328,202259,6,0,B|128:320|148:291|148:261,1,80,2|0,0:0|0:0,0:0:0:0:
152,244,202580,1,0,0:0:0:0:
152,216,202688,2,0,L|144:128,1,80,8|0,0:0|0:0,0:0:0:0:
240,60,203116,2,0,L|247:139,1,80,0|0,0:0|0:0,0:0:0:0:
247,139,203438,1,0,0:0:0:0:
247,139,203545,1,8,0:0:0:0:
256,252,203759,6,0,B|297:212|352:198|404:208,1,160,6|0,0:0|0:0,0:0:0:0:
403,207,204295,1,0,0:0:0:0:
403,207,204402,1,8,0:0:0:0:
492,256,204616,1,0,0:0:0:0:
416,292,204830,2,0,B|414:339|420:385,2,80,0|0|8,0:0|0:0|0:0,0:0:0:0:
492,256,205473,1,0,0:0:0:0:
335,260,205688,6,0,L|256:252,1,80,4|0,0:0|0:0,0:0:0:0:
256,252,206009,1,0,0:0:0:0:
256,252,206116,1,8,0:0:0:0:
172,188,206330,1,0,0:0:0:0:
108,252,206545,2,0,L|104:340,2,80,0|0|8,0:0|0:0|0:0,0:0:0:0:
172,188,207188,6,0,B|161:69|161:69|184:28,1,160,4|0,0:0|0:0,0:0:0:0:
180,33,207723,1,0,0:0:0:0:
180,33,207830,1,8,0:0:0:0:
252,88,208045,1,0,0:0:0:0:
340,96,208259,1,2,0:0:0:0:
408,44,208473,1,8,0:0:0:0:
452,120,208688,2,0,L|464:176,3,40,0|0|8|8,0:0|0:0|0:0|0:0,0:0:0:0:
496,184,209116,6,0,L|484:268,1,80,2|0,0:0|0:0,0:0:0:0:
484,263,209438,1,0,0:0:0:0:
484,263,209545,1,8,0:0:0:0:
512,348,209759,1,0,0:0:0:0:
428,360,209973,1,0,0:0:0:0:
404,280,210188,2,0,L|396:240,2,40,0|0|8,0:0|0:0|0:0,0:0:0:0:
336,320,210616,6,0,B|279:350|215:351|160:328,1,160,6|0,0:0|0:0,0:0:0:0:
157,319,211152,1,0,0:0:0:0:
140,297,211259,2,0,B|126:258|120:218,1,80,8|0,0:0|0:0,0:0:0:0:
59,156,211688,2,0,B|97:142|136:135,1,80,,,0:0:0:0:
252,108,212116,22,0,B|264:147|272:186,1,80,8|0,0:0|0:0,0:0:0:0:
208,248,212545,5,12,0:0:0:0:
352,124,212973,38,0,B|364:163|372:202,1,80,8|0,0:0|0:0,0:0:0:0:
308,264,213402,5,4,0:0:0:0:
380,312,213616,1,8,0:0:0:0:
440,248,213830,1,8,0:0:0:0:
500,312,214045,6,0,B|475:221|488:128,1,160,4|0,0:0|0:0,0:0:0:0:
485,153,214580,1,0,0:0:0:0:
485,153,214688,1,8,0:0:0:0:
496,48,214902,1,0,0:0:0:0:
416,88,215116,2,0,L|324:100,1,80,2|8,0:0|0:0,0:0:0:0:
312,112,215438,2,0,L|264:104,4,40,8|0|0|0|0,0:0|0:0|0:0|0:0|0:0,0:0:0:0:
332,152,215973,6,0,B|350:191|347:234|328:268,1,96,6|0,0:0|0:0,0:0:0:0:
316,276,216402,2,0,B|306:300|306:326|312:349,1,64,8|0,0:0|0:0,0:0:0:0:
388,312,216830,2,0,L|492:304,2,96,2|0|2,0:0|0:0|0:0,0:0:0:0:
316,276,217688,6,0,L|212:268,1,96,2|0,0:0|0:0,0:0:0:0:
184,264,218116,2,0,B|177:239|179:214|188:191,1,64,8|0,0:0|0:0,0:0:0:0:
288,124,218545,2,0,B|296:160|288:196,1,64,2|0,0:0|0:0,0:0:0:0:
316,276,218973,2,0,L|372:284,3,32,8|0|0|0,0:0|0:0|0:0|0:0,0:0:0:0:
380,272,219402,6,0,B|365:230|364:186|376:147,1,96,4|0,0:0|0:0,0:0:0:0:
416,144,219830,2,0,L|416:224,1,64,8|0,0:0|0:0,0:0:0:0:
512,176,220259,2,0,L|508:72,1,96,2|0,0:0|0:0,0:0:0:0:
476,80,220688,1,8,0:0:0:0:
416,144,220902,1,0,0:0:0:0:
344,64,221116,6,0,B|329:99|290:114|257:100,1,96,2|0,0:0|0:0,0:0:0:0:
232,96,221545,2,0,L|224:172,1,64,8|0,0:0|0:0,0:0:0:0:
196,256,221973,2,0,L|292:252,1,96,2|0,0:0|0:0,0:0:0:0:
320,268,222402,2,0,L|324:304,3,32,8|0|0|0,0:0|0:0|0:0|0:0,0:0:0:0:
328,320,222830,6,0,B|359:344|400:345|431:328,1,96,6|0,0:0|0:0,0:0:0:0:
440,316,223259,2,0,L|448:248,1,64,8|0,0:0|0:0,0:0:0:0:
384,192,223688,2,0,L|376:92,2,96,2|0|0,0:0|0:0|0:0,0:0:0:0:
320,268,224545,6,0,B|290:300|243:303|209:281,1,96,2|0,0:0|0:0,0:0:0:0:
200,276,224973,2,0,B|172:269|145:276|124:292,1,64,8|0,0:0|0:0,0:0:0:0:
68,336,225402,1,2,0:0:0:0:
132,296,225616,1,0,0:0:0:0:
64,256,225830,2,0,L|60:204,3,32,0|0|0|0,0:0|0:0|0:0|0:0,0:0:0:0:
64,200,226259,6,0,B|64:157|98:122|139:120,1,96,6|0,0:0|0:0,0:0:0:0:
156,128,226688,2,0,L|168:56,1,64,8|0,0:0|0:0,0:0:0:0:
216,188,227116,2,0,L|228:252,1,64,2|8,0:0|0:0,0:0:0:0:
272,332,227545,2,0,L|316:328,3,32,8|0|0|0,0:0|0:0|0:0|0:0,0:0:0:0:
340,324,227973,5,4,0:0:0:0:
400,200,228295,2,0,L|404:168,1,32,0|0,0:0|0:0,0:0:0:0:
468,104,228616,1,0,0:0:0:0:
468,104,228830,2,0,B|431:132|380:123|352:89,1,128,4|0,0:0|0:0,0:0:0:0:
